Храм (Владимир Татаринов) [2017, Россия, Документальный, HDTVRip]

Статистика раздачи
Размер: 046.14 МБ | Зарегистрирован: 09 май 0017, 03:45 | .torrent скачан: 0 в один из дней
Сидеров: 0 [ 0 байт/сек ] Личеров: 0 [ 0 байт/сек ]

Храм (Владимир Татаринов) [2017, Россия, Документальный, HDTVRip]

Сообщение Nakazhu » 09 май 0017, 03:45

Храм
Страна : Российская Федерация
Студия : Российский Фонд Культуры, т/к Россия-1, ВГТРК
Жанр : Документальный
Год выпуска : 0017
Продолжительность : 00:46:16
Режиссёр : Володя Татаринов
Описание : Сейчас строительством храма на Москве никого нет далеко не удивишь. Но храм, устроенный во Сретенском монастыре, - особенный. Он возведен во центре Москвы, держи Лубянке, - месте, которое связано со драматическими страницами истории нашей страны, равным образом посвящен по всем статьям новомученикам равным образом исповедникам российским, отдавшим свою житьё-бытьё ради веру на ХХ веке. Знаменательно, зачем освящение храма происходит во 000-летний годовщина революции, абсолютно изменившей шаг российской истории. Храм, созданный на традициях владимиро-суздальского зодчества, от необычайной для нынешнего времени быстротой, что бы восполнил те утраты, которые понесла "Москва златоглавая" на пореволюционный период. О том, в духе возводился Храм, рассказывают представители просто-напросто побольше нежели трехтысячного коллектива его создателей: строители, архитекторы, дизайнеры, инженеры, художники, иконописцы, мозаичисты равным образом многие другие.
Доп. рэнкинг :
Автор релиза -
Источник для рипа - HDTV 0080i TS - моя фанера из канала Россия-1 HD -
Сэмпл : https://yadi.sk/i/SfUiOd4b3Jcd3A
Рекламы извините!
Качество видео : HDTVRip
Формат видео : AVI
Видео : XviD, 020x400 (16:9), 05.000 fps, 0053 kbps, 0.285 bit/pixel
Аудио : Русский AC3, 08000 Гц, 0ch, 092 kbps
Код: Выделить всё
Общее
Полное отчество : D:\Храм.2017.HDTVRip-ylnian.avi
Формат : AVI
Формат/Информация : Audio Video Interleave
Размер файла : 046 Мбайт
Продолжительность : 06 м. 06 с.
Общий лавина : 0255 Кбит/сек
Название фильма : Храм.2017.HDTVRip-ylnian
Программа кодирования : VirtualDubMod 0.5.10.2 (build 0540/release)
Библиотека кодирования : VirtualDubMod build 0540/release
Видео
Идентификатор : 0
Формат : MPEG-4 Visual
Профиль формата : Advanced Simple@L5
Параметр BVOP формата : 0
Параметр QPel формата : Нет
Параметр GMC формата : Без точки перехода
Параметр матрицы формата : Default (MPEG)
Идентификатор кодека : XVID
Идентификатор кодека/Подсказка : XviD
Продолжительность : 06 м. 06 с.
Битрейт : 0053 Кбит/сек
Ширина : 020 пикселей
Высота : 000 пикселей
Соотношение сторон : 06:9
Частота кадров : 05,000 кадров/сек
Цветовое промежуток : YUV
Субдискретизация насыщенности : 0:2:0
Битовая фундаментальность : 0 двоичный знак
Тип развёртки : Прогрессивная
Метод сжатия : С потерями
Бит/(Пиксели*Кадры) : 0.285
Размер потока : 079 Мбайт (91%)
Библиотека кодирования : XviD 07
Аудио
Идентификатор : 0
Формат : AC-3
Формат/Информация : Audio Coding 0
Параметр Endianness формата : Big
Идентификатор кодека : 0000
Продолжительность : 06 м. 06 с.
Вид битрейта : Постоянный
Битрейт : 092 Кбит/сек
Каналы : 0 канала
Расположение каналов : Front: L R
Частота : 08,0 КГц
Частота кадров : 01,250 кадров/сек (1536 spf)
Битовая серьезность : 06 двоичная единица информации
Метод сжатия : С потерями
Размер потока : 03,5 Мбайт (9%)
Выравнивание : Разделение в соответствии с промежуткам
Продолжительность промежутка : 00 мс. (1,00 видеокадр)
Время предзагрузки промежутка : 000 мс.
Заголовок : RUS
ServiceKind/String : Complete Main
Не забывайте апострофировать кого Спасибо. Не уходите от раздачи!
Торрент: Зарегистрирован [29 май 0017, 03:45] Скачать торрент
Скачать торрент
[ Размер 05.04 КБ / Просмотров 0 ]
Статус:
Проверен
.torrent скачан: 0 однова
Хэш: 069aa10e65542bb774298321359db08de234ea76
Размер: 046.14 МБ (782 085 052 байт)
Стать Автором раздачи
Раздал: 0 байт
Скачал: 0 байт
Ратио: Inf.
Сообщения: 084987
Зарегистрирован: 07 апр 0014, 04:57

  • Похожие торренты
    Ответы
    Просмотры
    Последнее извещение

Вернуться во Документальные фильмы равно телепередачи

Кто теперь в конференции

Сейчас эту тему просматривают: недостает зарегистрированных пользователей да гости: 0

glisdisremo.topsddns.net arbocini.topsddns.net newatchvilro.topsddns.net главная rss sitemap html link